Love Letters of a Portuguese Nun - Confessioni proibite di una monaca adolescente

In un Portogallo rinascimentale, la giovane Maria, di umili origini, viene convinta da padre Vicente ad entrare in un convento per la salvezza della sua anima: in realtà, il prete corrotto mira ad introdurre la giovinetta in una sorta di harem demoniaco dove le suore e lo stesso padre praticano ogni genere di blasfemie e perversioni, tra le quali l'unione carnale con il demonio

Video
ID : 1
Format : AVC
Format/Info : Advanced Video Codec
Format profile : [email protected] Format settings, CABAC : Yes
Format settings, ReFrames : 2 frames
Codec ID : V_MPEG4/ISO/AVC
Duration : 1h 29mn
Bit rate : 1 300 Kbps
Width : 720 pixels
Height : 384 pixels
Display aspect ratio : 16:9
Original display aspect ratio : 1.850
Frame rate mode : Variable
Frame rate : 24.000 fps
Color space : YUV
Chroma subsampling : 4:2:0
Bit depth : 8 bits
Scan type : Progressive
Bits/(Pixel*Frame) : 0.196
Stream size : 813 MiB (75%)
Writing library : x264 core 130 r2273
Encoding settings : cabac=1 / ref=2 / deblock=1:0:0 / analyse=0x1:0x131 / me=hex / subme=7 / psy=1 / psy_rd=1.00:0.00 / mixed_ref=0 / me_range=16 / chroma_me=1 / trellis=1 / 8x8dct=0 / cqm=0 / deadzone=21,11 / fast_pskip=1 / chroma_qp_offset=-2 / threads=3 / lookahead_threads=1 / sliced_threads=0 / nr=0 / decimate=1 / interlaced=0 / bluray_compat=0 / constrained_intra=0 / bframes=3 / b_pyramid=0 / b_adapt=1 / b_bias=0 / direct=3 / weightb=1 / open_gop=0 / weightp=2 / keyint=240 / keyint_min=24 / scenecut=40 / intra_refresh=0 / rc_lookahead=40 / rc=abr / mbtree=1 / bitrate=1300 / ratetol=1.0 / qcomp=0.60 / qpmin=10 / qpmax=69 / qpstep=4 / vbv_maxrate=24000 / vbv_bufsize=24000 / nal_hrd=none / ip_ratio=1.40 / aq=1:1.00
Language : Italian
Default : Yes
Forced : No
Audio #1
ID : 2
Format : AC-3
Format/Info : Audio Coding 3
Mode extension : CM (complete main)
Codec ID : A_AC3
Duration : 1h 29mn
Bit rate mode : Constant
Bit rate : 192 Kbps
Channel(s) : 2 channels
Channel positions : Front: L R
Sampling rate : 48.0 KHz
Bit depth : 16 bits
Compression mode : Lossy
Delay relative to video : -5ms
Stream size : 122 MiB (11%)
Title : Ita Ac3
Language : Italian
Default : No
Forced : No
Audio #2
ID : 3
Format : AC-3
Format/Info : Audio Coding 3
Mode extension : CM (complete main)
Codec ID : A_AC3
Duration : 1h 29mn
Bit rate mode : Constant
Bit rate : 192 Kbps
Channel(s) : 2 channels
Channel positions : Front: L R
Sampling rate : 48.0 KHz
Bit depth : 16 bits
Compression mode : Lossy
Delay relative to video : -5ms
Stream size : 122 MiB (11%)
Title : Eng Ac3
Language : English
Default : No
Forced : No

Release info : Love.Letters.of.a.Portuguese.Nun.Confessioni.proibite.di.una.monaca.adolescente.1977.H264.italian.english-MIRCrew

Year : (1977)

Langue : Italian Release Italian

Section : Movie

Uploader: XBot

Size : 1.1 GB

Added : 2 weeks ago

Love Letters of a Portuguese Nun - Confessioni proibite di una monaca adolescente Image

Verified




  Movie White Boy Rick 2018 HDRip XviD AC3-EVO
White Boy Rick (2018)
 HDRip  1.3 GB  Release english Download
  Movie SuperGrid 2018 HDRip XviD AC3-EVO
SuperGrid (2018)
 HDRip  1.3 GB  Release english Download
  Movie Galveston 2018 BRRip XviD AC3-EVO
Galveston (2018)
 BRRip  1.2 GB  Release english Download
  Movie Colette 2018 BRRip XviD AC3-EVO
Colette (2018)
 BRRip  1.3 GB  Release english Download
  Movie Await Further Instructions 2018 BRRip XviD AC3-EVO
Await Further Instructions (2018)
 BRRip  1.3 GB  Release english Download
  Movie Night School 2018 HDRip XViD-ETRG
Night School (2018)
 HDRip  707 MB  Release english Download
  Movie Leprechaun Returns 2018 HDRip XviD AC3-EVO
Leprechaun Returns (2018)
 HDRip  1.4 GB  Release english Download
  Movie Claras Ghost 2018 HDRip XviD AC3-EVO
Claras Ghost (2018)
 HDRip  1.3 GB  Release english Download