Operation Condor

Jackie is hired to help the UN find Nazi gold hidden in Sahara. He's accompanied from Spain by 2 (later 3) cute women. As there are others wanting the gold, lots of kung fu fighting and comedy follows.

Audio #1
Format : AC-3
Bit rate : 256 kb/s
Channel(s) : 2 channels
Channel positions : Front: L R
Sampling rate : 48.0 kHz
Bit depth : 16 bits
Stream size : 195 MiB (2%)
Language : English
Default : Yes
Audio #2
Format : AC-3
Bit rate : 448 kb/s
Channel(s) : 6 channels
Sampling rate : 48.0 kHz
Bit depth : 16 bits
Stream size : 342 MiB (4%)
Language : Chinese

Release info : Operation.Condor.1991.Multi.1080p.BluRay.x264.DDS.5.1

Year : (1991)

Langue : English Release English

Section : Movie

Quality :  BLURAY

Uploader: DriffiX

Size : 8 GB

Added : 3 weeks ago

Video : x264

Resolution : 1920x1080

Operation Condor Image

Verified




  Movie Lemonade 2019 HDRip XviD AC3-EVO
Lemonade (2019)
 HDRip  1.3 GB  Release english Download
  Movie A Dogs Way Home 2019 HC HDRip XviD AC3-EVO
A Dogs Way Home (2019)
 HDRip  813 MB  Release english Download
  Movie Abduction 2019 HDRip XviD AC3-EVO
Abduction (2019)
 HDRip  1.4 GB  Release english Download
  Movie The Brave 2019 HDRip XviD AC3-EVO
The Brave (2019)
 HDRip  1.3 GB  Release english Download
  Movie The Mule 2018 HDRip AC3 x264-CMRG
The Mule (2018)
 HDRip  1.3 GB  Release english Download
  Movie Boo 2019 HDRip XViD-ETRG
Boo (2019)
 HDRip  710 MB  Release english Download
  Movie Wonder Park 2019 HDCAM x264 AC3-ETRG
Wonder Park (2019)
 CAM  849 MB  Release english Download
  Movie Bumblebee 2018 HDRip XviD AC3-EVO
Bumblebee (2018)
 HDRip  1.2 GB  Release english Download