Operation Condor

Jackie is hired to help the UN find Nazi gold hidden in Sahara. He's accompanied from Spain by 2 (later 3) cute women. As there are others wanting the gold, lots of kung fu fighting and comedy follows.

Audio #1
Format : AC-3
Bit rate : 256 kb/s
Channel(s) : 2 channels
Channel positions : Front: L R
Sampling rate : 48.0 kHz
Bit depth : 16 bits
Stream size : 195 MiB (2%)
Language : English
Default : Yes
Audio #2
Format : AC-3
Bit rate : 448 kb/s
Channel(s) : 6 channels
Sampling rate : 48.0 kHz
Bit depth : 16 bits
Stream size : 342 MiB (4%)
Language : Chinese

Release info : Operation.Condor.1991.Multi.1080p.BluRay.x264.DDS.5.1

Year : (1991)

Langue : English Release English

Section : Movie

Quality :  BLURAY

Uploader: DriffiX

Size : 8 GB

Added : 4 months ago

Video : x264

Resolution : 1920x1080

Operation Condor Image

Verified




  Movie FollowMe 2019 HDRip XviD AC3-EVO
FollowMe (2019)
 HDRip  1.3 GB  Release english Download
  Movie The Haunting Of Borley Rectory 2019 HDRip XviD AC3-EVO
The Haunting Of Borley Rectory (2019)
 HDRip  1.3 GB  Release english Download
  Movie Asterix The Secret of the Magic Potion 2019 HDRip XviD AC3-EVO
Asterix The Secret of the Magic Potion (2019)
 HDRip  1.1 GB  Release english Download
  Movie Wonder Park 2019 HDRip XviD AC3-EVO
Wonder Park (2019)
 HDRip  1.1 GB  Release english Download
  Movie Relaxer 2019 HDRip XviD AC3-EVO
Relaxer (2019)
 HDRip  1.3 GB  Release english Download
  Movie The Odds 2019 HDRip XviD AC3-EVO
The Odds (2018)
 HDRip  1.4 GB  Release english Download
  Movie Deadwood 2019 HDRip XviD AC3-EVO
Deadwood (2019)
 HDRip  1.3 GB  Release english Download
  Movie Oh Ramona 2019 HDRip XviD AC3-EVO
Oh Ramona (2019)
 HDRip  1.3 GB  Release english Download