Ruby & Quentin - Stai zitto non rompere - Tais-toi

Ruby, uno spietato gangster senza scrupoli, viene arrestato per aver rubato venti milioni di euro da un furgone blindato. Peraltro la polizia francese non è il solo problema di Ruby, braccato dagli scagnozzi di Vogel (boss della mafia francese), che tenteranno in ogni modo di scoprire dove Ruby abbia nascosto il denaro.

One prisoner tell to another that he hid a very large amount of money before the arrest. Together they manage to escape, but this is where their adventures are just beginning.

Video
ID : 1
Format : AVC
Format/Info : Advanced Video Codec
Format profile : [email protected]
Format settings, CABAC : Yes
Format settings, ReFrames : 4 frames
Codec ID : V_MPEG4/ISO/AVC
Duration : 1h 23mn
Bit rate : 1 300 Kbps
Width : 720 pixels
Height : 304 pixels
Display aspect ratio : 2.35:1
Frame rate mode : Variable / Variable
Frame rate : 25.000 fps
Color space : YUV
Chroma subsampling : 4:2:0
Bit depth : 8 bits
Scan type : Progressive
Bits/(Pixel*Frame) : 0.238
Stream size : 752 MiB (75%)
Writing library : x264 core 142 r2479 dd79a61
Encoding settings : cabac=1 / ref=3 / deblock=1:0:0 / analyse=0x3:0x113 / me=hex / subme=7 / psy=1 / psy_rd=1.00:0.00 / mixed_ref=1 / me_range=16 / chroma_me=1 / trellis=1 / 8x8dct=1 / cqm=0 / deadzone=21,11 / fast_pskip=1 / chroma_qp_offset=-2 / threads=6 / lookahead_threads=1 / sliced_threads=0 / nr=0 / decimate=1 / interlaced=0 / bluray_compat=0 / constrained_intra=0 / bframes=3 / b_pyramid=2 / b_adapt=1 / b_bias=0 / direct=1 / weightb=1 / open_gop=0 / weightp=2 / keyint=250 / keyint_min=25 / scenecut=40 / intra_refresh=0 / rc_lookahead=40 / rc=abr / mbtree=1 / bitrate=1300 / ratetol=1.0 / qcomp=0.60 / qpmin=0 / qpmax=69 / qpstep=4 / vbv_maxrate=62500 / vbv_bufsize=78125 / nal_hrd=none / filler=0 / ip_ratio=1.40 / aq=1:1.00
Language : Italian
Default : Yes
Forced : No
Color primaries : BT.470-6 System B, BT.470-6 System G, BT.601-6 625, BT.1358 625, BT.1700 625 PAL, BT.1700 625 SECAM
Transfer characteristics : BT.709-5, BT.1361
Matrix coefficients : BT.601-6 525, BT.1358 525, BT.1700 NTSC, SMPTE 170M

Audio
ID : 2
Format : AC-3
Format/Info : Audio Coding 3
Mode extension : CM (complete main)
Codec ID : A_AC3
Duration : 1h 23mn
Bit rate mode : Constant
Bit rate : 384 Kbps
Channel(s) : 6 channels
Channel positions : Front: L C R, Side: L R, LFE
Sampling rate : 48.0 KHz
Bit depth : 16 bits
Compression mode : Lossy
Delay relative to video : -5ms
Stream size : 230 MiB (23%)
Title : Ita Ac3 5.1
Language : Italian
Default : Yes
Forced : No

Menu
00:00:00.000 : :Chapter 1
00:04:28.320 : :Chapter 2
00:08:32.160 : :Chapter 3
00:14:25.680 : :Chapter 4
00:22:53.760 : :Chapter 5
00:29:26.880 : :Chapter 6
00:35:08.160 : :Chapter 7
00:41:06.120 : :Chapter 8
00:46:45.960 : :Chapter 9
00:53:11.040 : :Chapter 10
00:59:02.760 : :Chapter 11
01:03:06.840 : :Chapter 12
01:07:55.680 : :Chapter 13
01:11:57.120 : :Chapter 14
01:15:27.720 : :Chapter 15
01:18:16.200 : :Chapter 16

Release info : Ruby.&.Quentin.Stai.zitto.non.rompere.Tais-toi.2003.H264.italian.french.Ac3.sub.ita.eng

Year : (2003)

Langue : English Release English

Section : Movie

Uploader: Moonshine

Size : 1,005 MB

Added : 4 months ago

Audio : AC3

Ruby & Quentin - Stai zitto non rompere - Tais-toi Image

Verified




  Movie Miss Bala 2019 BDRip XviD AC3-EVO
Miss Bala (2019)
 BDRip  1.4 GB  Release english Download
  Movie Hell Of A Night 2019 HDRip XviD AC3-EVO
Hell Of A Night (2019)
 HDRip  1.3 GB  Release english Download
  Movie Excursion 2019 HDRip XviD AC3-EVO
Excursion (2019)
 HDRip  1.2 GB  Release english Download
  Movie Dagenham 2018 HDRip XviD AC3-EVO
Dagenham (2018)
 HDRip  1.3 GB  Release english Download
  Movie Every 21 Seconds 2018 HDRip XviD AC3-EVO
Every 21 Seconds (2018)
 HDRip  1.3 GB  Release english Download
  Movie Then Came You 2019 BRRip XviD AC3-EVO
Then Came You (2019)
 CAM  1.4 GB  Release english Download
  Movie The Last Man 2018 1080p BluRay x264-CiNEFiLE
The Last Man (2018)
 BluRay  7.76 GB  Release english Download
  Movie The Last Man 2018 720p BluRay x264-CiNEFiLE
The Last Man (2018)
 BluRay  4.42 GB  Release english Download